标题: [华语] [BD]潘瑋柏 Ft. 蔡依林- 大藝術家&Play我呸 - *王者归来演唱会LIVE 版*[MP4/52M]
  本主题被作者加入到个人文集中  
‘尛傑’ (肥旺…)
音乐掌门人
Rank: 14Rank: 14Rank: 14Rank: 14
独家资源


至爱音乐荣誉勋章   至爱音乐版主  
UID 59570
精华 11
积分 2391671992
帖子 2077
音乐魅力 244186257 点
现金 2147483647 音乐币
阅读权限 180
注册 2006-8-28
状态 离线
发表于 2017-8-14 15:05  资料  个人空间  短消息  加为好友  QQ
[BD]潘瑋柏 Ft. 蔡依林- 大藝術家&Play我呸 - *王者归来演唱会LIVE 版*[MP4/52M]



QUOTE:
下载地址:
http://pan.baidu.com/s/1kVbvMAj

提取码:
**** 本内容跟帖回复才可浏览 *****



QUOTE:
General
Format                         : MPEG-4
Format profile                 : Base Media / Version 2
Codec ID                       : mp42 (isom/mp42)
File size                      : 52.1 MiB
Duration                       : 3 min 10 s
Overall bit rate mode          : Variable
Overall bit rate               : 2 290 kb/s
Encoded date                   : UTC 2016-08-25 04:28:04
Tagged date                    : UTC 2016-08-25 04:28:04
gsst                           : 0
gstd                           : 190821

Video
ID                             : 1
Format                         : AVC
Format/Info                    : Advanced Video Codec
Format profile                 : Main@L3.1
Format settings, CABAC         : Yes
Format settings, ReFrames      : 3 frames
Codec ID                       : avc1
Codec ID/Info                  : Advanced Video Coding
Duration                       : 3 min 10 s
Bit rate                       : 2 161 kb/s
Width                          : 1 280 pixels
Height                         : 720 pixels
Display aspect ratio           : 16:9
Frame rate mode                : Constant
Frame rate                     : 29.970 (30000/1001) FPS
Color space                    : YUV
Chroma subsampling             : 4:2:0
Bit depth                      : 8 bits
Scan type                      : Progressive
Bits/(Pixel*Frame)             : 0.078
Stream size                    : 49.1 MiB (94%)
Title                          : ISO Media file produced by Google Inc.
Encoded date                   : UTC 2016-08-25 04:28:04
Tagged date                    : UTC 2016-08-25 04:28:04
Color range                    : Limited
Color primaries                : BT.709
Transfer characteristics       : BT.709
Matrix coefficients            : BT.709

Audio
ID                             : 2
Format                         : AAC
Format/Info                    : Advanced Audio Codec
Format profile                 : LC
Codec ID                       : 40
Duration                       : 3 min 10 s
Bit rate mode                  : Variable
Bit rate                       : 126 kb/s
Channel(s)                     : 2 channels
Channel positions              : Front: L R
Sampling rate                  : 44.1 kHz
Frame rate                     : 43.066 FPS (1024 spf)
Compression mode               : Lossy
Stream size                    : 2.86 MiB (5%)
Title                          : ISO Media file produced by Google Inc.
Encoded date                   : UTC 2016-08-25 04:28:04
Tagged date                    : UTC 2016-08-25 04:28:04


分享到:     分享到新浪微博 新浪微博    分享到QQ空间QQ空间    分享到腾讯微博腾讯微博



至爱音乐论坛声明:
◎本站音乐仅供试听,请下载后在24小时内删除,请支持你喜欢的歌手,购买正版CD。
◎本站音乐皆从网上搜集转载,版权归唱片公司和歌手所有,如侵犯您的权益,请通知我们,我们将及时删除。





顶部
MICHAEL
音乐狂热份子
Rank: 4



UID 142500
精华 0
积分 2032
帖子 942
音乐魅力 1070 点
现金 20 音乐币
阅读权限 50
注册 2011-4-1
状态 离线
发表于 2017-8-14 20:36  资料  个人空间  短消息  加为好友 
回复 #1 ‘尛傑’ 的帖子


顶部
jiushini
音乐狂热份子
Rank: 4



UID 110251
精华 0
积分 2210
帖子 71
音乐魅力 1674 点
现金 465 音乐币
阅读权限 50
注册 2007-5-1
状态 离线
发表于 2017-8-23 11:34  资料  个人空间  短消息  加为好友 
这人老了 不过蔡依林也lao了

顶部
yuehuilau (拥抱月光)
荣誉音乐师
Rank: 10Rank: 10Rank: 10


荣誉勋章   至爱音乐荣誉会员  
UID 115291
精华 0
积分 5726
帖子 701
音乐魅力 3658 点
现金 1367 音乐币
阅读权限 100
注册 2007-8-1
来自 北京
状态 离线
发表于 2017-10-25 15:21  资料  个人空间  短消息  加为好友 

顶部
zjinmiao
音乐热爱份子
Rank: 3Rank: 3


UID 128560
精华 0
积分 1808
帖子 260
音乐魅力 1381 点
现金 167 音乐币
阅读权限 30
注册 2008-11-1
状态 离线
发表于 2017-12-28 19:02  资料  个人空间  短消息  加为好友  QQ
LIVE棒棒

顶部
藤井蓝
音乐热爱份子
Rank: 3Rank: 3


UID 130668
精华 0
积分 1362
帖子 80
音乐魅力 984 点
现金 298 音乐币
阅读权限 30
注册 2009-1-15
状态 离线
发表于 2018-1-18 21:35  资料  个人空间  短消息  加为好友 
感谢分享

顶部
Snoopy412
音乐新人
Rank: 1



UID 146101
精华 0
积分 142
帖子 17
音乐魅力 125 点
现金 0 音乐币
阅读权限 10
注册 2012-9-1
状态 离线
发表于 2018-3-2 20:07  资料  个人空间  短消息  加为好友 
感谢分享

顶部
 



当前时区 GMT+8, 现在时间是 2018-12-19 17:51
本论坛支付平台由支付宝提供
携手打造安全诚信的交易社区
Processed in 0.022164 second(s), 8 queries , Gzip enabled

清除 Cookies - 联系我们 - 至爱音乐论坛 - Archiver - WAP