标题: [华语] [BD]S.H.E - 十七音乐会[MP4/3.45G]
  本主题被作者加入到个人文集中  
‘尛傑’ (肥旺…)
音乐掌门人
Rank: 14Rank: 14Rank: 14Rank: 14
独家资源


至爱音乐荣誉勋章   至爱音乐版主  
UID 59570
精华 20
积分 2391672001
帖子 2077
音乐魅力 244186257 点
现金 2147483647 音乐币
阅读权限 180
注册 2006-8-28
状态 离线
发表于 2018-9-18 01:08  资料  个人空间  短消息  加为好友  QQ
[BD]S.H.E - 十七音乐会[MP4/3.45G]



QUOTE:
女子天团S.H.E今天9月11日届满成军17周年,今晚在两厅院艺文广场举行“S.H.E十七周年”万人免费露天音乐会,Selina昨在面簿上载演唱会舞台现场图片,整个演唱会舞台设计大型成游乐场,充满童趣,舞台上方又正好挂着彩虹,让三姝喜出望外。

Selina任家萱写道“彩排前出現了彩虹!期待明天!”

Hebe田馥甄今早也在微博写:“‘身为一道彩虹,尽全力也要换你一段笑容,夠了。我爱你不必人懂’,晚上见!生日快乐!@嘉桦ella:超期待!”

长达两小时的免费演唱会,无论从舞台设计到表演曲目,也已经是正式卖票演唱会规格,S.H.E这次大手笔举行免费演唱会,就是为了回馈粉丝17年来的支持。



QUOTE:
下載地址:

https://pan.baidu.com/s/1Fk6arcTPHgXjEAu2Yp-Qzw

提取碼:

**** 本内容跟帖回复才可浏览 *****



QUOTE:
General
Format                         : MPEG-4
Format profile                 : Base Media
Codec ID                       : isom (isom/iso2/avc1/mp41)
File size                      : 3.46 GiB
Duration                       : 2 h 4 min
Overall bit rate               : 3 983 kb/s
Writing application            : Lavf57.71.100

Video
ID                             : 1
Format                         : AVC
Format/Info                    : Advanced Video Codec
Format profile                 : High@L4
Format settings, CABAC         : Yes
Format settings, ReFrames      : 4 frames
Codec ID                       : avc1
Codec ID/Info                  : Advanced Video Coding
Duration                       : 2 h 4 min
Bit rate                       : 3 844 kb/s
Width                          : 1 920 pixels
Height                         : 1 080 pixels
Display aspect ratio           : 16:9
Frame rate mode                : Constant
Frame rate                     : 25.000 FPS
Color space                    : YUV
Chroma subsampling             : 4:2:0
Bit depth                      : 8 bits
Scan type                      : Progressive
Bits/(Pixel*Frame)             : 0.074
Stream size                    : 3.34 GiB (97%)

Audio
ID                             : 2
Format                         : AAC
Format/Info                    : Advanced Audio Codec
Format profile                 : LC
Codec ID                       : 40
Duration                       : 2 h 4 min
Bit rate mode                  : Constant
Bit rate                       : 129 kb/s
Channel(s)                     : 2 channels
Channel positions              : Front: L R
Sampling rate                  : 44.1 kHz
Frame rate                     : 43.066 FPS (1024 spf)
Compression mode               : Lossy
Stream size                    : 115 MiB (3%)
Language                       : unk
Default                        : Yes
Alternate group                : 1






至爱音乐论坛声明:
◎本站音乐仅供试听,请下载后在24小时内删除,请支持你喜欢的歌手,购买正版CD。
◎本站音乐皆从网上搜集转载,版权归唱片公司和歌手所有,如侵犯您的权益,请通知我们,我们将及时删除。





顶部
bluelarry
音乐狂热份子
Rank: 4



UID 45410
精华 0
积分 3445
帖子 211
音乐魅力 2518 点
现金 716 音乐币
阅读权限 50
注册 2006-7-13
状态 离线
发表于 2018-9-18 17:37  资料  个人空间  短消息  加为好友 
谢谢分享!!!!

顶部
lj19831024
音乐狂热份子
Rank: 4



UID 12795
精华 0
积分 2596
帖子 147
音乐魅力 1925 点
现金 524 音乐币
阅读权限 50
注册 2006-3-15
状态 离线
发表于 2018-10-17 18:50  资料  个人空间  短消息  加为好友 
thank you very much!

顶部
wziang
音乐狂热份子
Rank: 4



UID 3203
精华 0
积分 3024
帖子 21
音乐魅力 2286 点
现金 717 音乐币
阅读权限 50
注册 2006-1-1
状态 离线
发表于 2018-11-5 13:12  资料  个人空间  短消息  加为好友  QQ
感谢分享~

顶部
eagle2371 (仪凤)
荣誉音乐师
Rank: 10Rank: 10Rank: 10


荣誉勋章   至爱音乐荣誉勋章   至爱音乐荣誉会员  
UID 16148
精华 0
积分 4503
帖子 278
音乐魅力 3170 点
现金 1055 音乐币
阅读权限 100
注册 2006-4-1
状态 离线
发表于 2018-11-7 14:43  资料  个人空间  短消息  加为好友 
好久没来论坛啦。发现还在更新,虽然慢了些,但还在……
支持!





顶部
荷露雪 (小超)
荣誉音乐师
Rank: 10Rank: 10Rank: 10


荣誉勋章   至爱音乐荣誉勋章   至爱音乐荣誉会员  
UID 28336
精华 0
积分 5559
帖子 539
音乐魅力 4809 点
现金 211 音乐币
阅读权限 100
注册 2006-5-23
来自 浙江
状态 离线
发表于 2018-11-8 11:02  资料  个人空间  短消息  加为好友 
谢谢分享!






We got a princess,it's you Chao!
顶部
NarutoKid
音乐狂热份子
Rank: 4



UID 60131
精华 0
积分 2303
帖子 23
音乐魅力 2223 点
现金 57 音乐币
阅读权限 50
注册 2006-8-29
来自 Malaysia
状态 离线
发表于 2019-1-13 14:16  资料  个人空间  短消息  加为好友 
赞!谢谢分享!

顶部
djjo
荣誉音乐师
Rank: 10Rank: 10Rank: 10


荣誉勋章   至爱音乐荣誉勋章   至爱音乐荣誉会员  
UID 14055
精华 0
积分 4509
帖子 241
音乐魅力 3112 点
现金 1156 音乐币
阅读权限 100
注册 2006-3-22
状态 离线
发表于 2019-1-16 11:21  资料  个人空间  短消息  加为好友 
谢谢楼主的辛勤劳动

顶部
PaoloLai
音乐狂热份子
Rank: 4


UID 120254
精华 0
积分 2184
帖子 48
音乐魅力 1665 点
现金 471 音乐币
阅读权限 50
注册 2007-12-1
状态 离线
发表于 2019-2-18 13:40  资料  个人空间  短消息  加为好友 
好赞啊······

顶部
msdc
音乐狂热份子
Rank: 4



UID 50734
精华 0
积分 2762
帖子 26
音乐魅力 2310 点
现金 426 音乐币
阅读权限 50
注册 2006-8-1
状态 离线
发表于 2019-10-28 22:36  资料  个人空间  短消息  加为好友 
1111111111111

顶部
挚爱lydia
音乐狂热份子
Rank: 4


UID 104491
精华 0
积分 2736
帖子 103
音乐魅力 1945 点
现金 688 音乐币
阅读权限 50
注册 2007-1-13
状态 离线
发表于 2019-12-3 02:38  资料  个人空间  短消息  加为好友 
加油我的三只!!!

顶部
yoyoma
音乐狂热份子
Rank: 4



UID 49464
精华 0
积分 3429
帖子 59
音乐魅力 2654 点
现金 716 音乐币
阅读权限 50
注册 2006-7-28
状态 离线
发表于 2019-12-4 16:49  资料  个人空间  短消息  加为好友 
这个太喜欢了‘ ’辛苦了哈

顶部
wmw
音乐门童




UID 149351
精华 0
积分 40
帖子 5
音乐魅力 25 点
现金 10 音乐币
阅读权限 5
注册 2016-3-1
状态 离线
发表于 2020-3-9 18:06  资料  个人空间  短消息  加为好友 
哇!期待三只再开唱!

顶部
wangweimin1989 (小维)
音乐新人
Rank: 1



UID 143727
精华 0
积分 144
帖子 3
音乐魅力 131 点
现金 10 音乐币
阅读权限 10
注册 2011-9-1
来自 溧水
状态 离线
发表于 2020-10-18 12:38  资料  个人空间  短消息  加为好友  QQ
111

顶部
 



当前时区 GMT+8, 现在时间是 2020-10-26 23:32
本论坛支付平台由支付宝提供
携手打造安全诚信的交易社区
Processed in 0.013999 second(s), 9 queries , Gzip enabled

清除 Cookies - 联系我们 - 至爱音乐论坛 - Archiver - WAP