‘尛傑’ (肥旺…)
音乐掌门人
Rank: 14Rank: 14Rank: 14Rank: 14
独家资源


至爱音乐荣誉勋章   至爱音乐版主  
UID 59570
精华 11
积分 544188345
帖子 2074
音乐魅力 244186251 点
现金 300000009 音乐币
阅读权限 180
注册 2006-8-28
状态 在线
发表于 2017-8-14 15:11  资料  个人空间  短消息  加为好友  QQ
[BD]Ed Sheeran - Shape of You[MP4/37M]



QUOTE:
下载地址:
http://pan.baidu.com/s/1skOs08X


提取码:
**** 本内容跟帖回复才可浏览 *****



QUOTE:
General
Format                         : MPEG-4
Format profile                 : Base Media / Version 2
Codec ID                       : mp42 (isom/mp42)
File size                      : 37.1 MiB
Duration                       : 4 min 23 s
Overall bit rate mode          : Variable
Overall bit rate               : 1 181 kb/s
Encoded date                   : UTC 2017-01-31 10:30:21
Tagged date                    : UTC 2017-01-31 10:30:21
gsst                           : 0
gstd                           : 263267

Video
ID                             : 1
Format                         : AVC
Format/Info                    : Advanced Video Codec
Format profile                 : Main@L3.1
Format settings, CABAC         : Yes
Format settings, ReFrames      : 3 frames
Codec ID                       : avc1
Codec ID/Info                  : Advanced Video Coding
Duration                       : 4 min 23 s
Bit rate                       : 1 051 kb/s
Width                          : 1 280 pixels
Height                         : 720 pixels
Display aspect ratio           : 16:9
Frame rate mode                : Variable
Frame rate                     : 23.976 (24000/1001) FPS
Minimum frame rate             : 23.974 FPS
Maximum frame rate             : 23.981 FPS
Color space                    : YUV
Chroma subsampling             : 4:2:0
Bit depth                      : 8 bits
Scan type                      : Progressive
Bits/(Pixel*Frame)             : 0.048
Stream size                    : 33.0 MiB (89%)
Title                          : ISO Media file produced by Google Inc.
Encoded date                   : UTC 2017-01-31 10:30:21
Tagged date                    : UTC 2017-01-31 10:30:21
Color range                    : Limited
Color primaries                : BT.709
Transfer characteristics       : BT.709
Matrix coefficients            : BT.709

Audio
ID                             : 2
Format                         : AAC
Format/Info                    : Advanced Audio Codec
Format profile                 : LC
Codec ID                       : 40
Duration                       : 4 min 23 s
Bit rate mode                  : Variable
Bit rate                       : 126 kb/s
Channel(s)                     : 2 channels
Channel positions              : Front: L R
Sampling rate                  : 44.1 kHz
Frame rate                     : 43.066 FPS (1024 spf)
Compression mode               : Lossy
Stream size                    : 3.94 MiB (11%)
Title                          : ISO Media file produced by Google Inc.
Encoded date                   : UTC 2017-01-31 10:30:21
Tagged date                    : UTC 2017-01-31 10:30:21


分享到:     分享到新浪微博 新浪微博    分享到QQ空间QQ空间    分享到腾讯微博腾讯微博



至爱音乐论坛声明:
◎本站音乐仅供试听,请下载后在24小时内删除,请支持你喜欢的歌手,购买正版CD。
◎本站音乐皆从网上搜集转载,版权归唱片公司和歌手所有,如侵犯您的权益,请通知我们,我们将及时删除。





顶部
陶喆主义
荣誉音乐师
Rank: 10Rank: 10Rank: 10


荣誉勋章   至爱音乐荣誉勋章   至爱音乐荣誉会员  
UID 13500
精华 0
积分 8568
帖子 1626
音乐魅力 5517 点
现金 1425 音乐币
阅读权限 100
注册 2006-3-19
状态 在线
发表于 2017-8-17 23:06  资料  个人空间  短消息  加为好友 
谢谢分享

顶部
xoxiaoyuer (AKA BigRoy)
音乐制作人
Rank: 6Rank: 6
雪雪的胖胖


UID 144276
精华 0
积分 5821
帖子 319
音乐魅力 5479 点
现金 23 音乐币
阅读权限 70
注册 2011-10-3
来自 青州
状态 离线
发表于 2017-9-4 23:39  资料  个人空间  短消息  加为好友  QQ
黄老板的歌都棒棒的 加油

顶部
dwellinmusic
音乐爱好者
Rank: 2


UID 138984
精华 0
积分 619
帖子 41
音乐魅力 368 点
现金 210 音乐币
阅读权限 30
注册 2010-9-1
状态 离线
发表于 2017-12-2 12:32  资料  个人空间  短消息  加为好友 
Ed Sheeran 的歌旋律郎朗上口,歌词也是充满人文关怀!

顶部
Lil'Jin
音乐制作人
Rank: 6Rank: 6


UID 84898
精华 0
积分 4596
帖子 611
音乐魅力 3067 点
现金 918 音乐币
阅读权限 70
注册 2006-11-10
来自 上海
状态 离线
发表于 2018-1-22 00:19  资料  个人空间  短消息  加为好友 
no.1 hit...

顶部
 



当前时区 GMT+8, 现在时间是 2018-5-22 09:58
本论坛支付平台由支付宝提供
携手打造安全诚信的交易社区
Processed in 0.027779 second(s), 9 queries , Gzip enabled

清除 Cookies - 联系我们 - 至爱音乐论坛 - Archiver - WAP