‘尛傑’ (肥旺…)
音乐掌门人
Rank: 14Rank: 14Rank: 14Rank: 14
独家资源


至爱音乐荣誉勋章   至爱音乐版主  
UID 59570
精华 11
积分 344188322
帖子 2069
音乐魅力 244186241 点
现金 100000001 音乐币
阅读权限 180
注册 2006-8-28
状态 在线
发表于 2017-6-21 14:18  资料  个人空间  短消息  加为好友  QQ
[BD]薛之謙 - 曖昧[MP4/27M]



QUOTE:
下载地址:
http://pan.baidu.com/s/1nv9K9CH

提取码:


**** 本内容跟帖回复才可浏览 *****



QUOTE:
General
Format                         : MPEG-4
Format profile                 : Base Media / Version 2
Codec ID                       : mp42 (isom/mp42)
File size                      : 28.0 MiB
Duration                       : 5 min 12 s
Overall bit rate mode          : Variable
Overall bit rate               : 751 kb/s
Encoded date                   : UTC 2017-05-23 12:33:30
Tagged date                    : UTC 2017-05-23 12:33:30
gsst                           : 0
gstd                           : 312261

Video
ID                             : 1
Format                         : AVC
Format/Info                    : Advanced Video Codec
Format profile                 : Main@L3.1
Format settings, CABAC         : Yes
Format settings, ReFrames      : 3 frames
Codec ID                       : avc1
Codec ID/Info                  : Advanced Video Coding
Duration                       : 5 min 12 s
Bit rate                       : 622 kb/s
Width                          : 1 280 pixels
Height                         : 720 pixels
Display aspect ratio           : 16:9
Frame rate mode                : Constant
Frame rate                     : 25.000 FPS
Color space                    : YUV
Chroma subsampling             : 4:2:0
Bit depth                      : 8 bits
Scan type                      : Progressive
Bits/(Pixel*Frame)             : 0.027
Stream size                    : 23.2 MiB (83%)
Title                          : ISO Media file produced by Google Inc.
Encoded date                   : UTC 2017-05-23 12:33:30
Tagged date                    : UTC 2017-05-23 12:33:30
Color range                    : Limited
Color primaries                : BT.709
Transfer characteristics       : BT.709
Matrix coefficients            : BT.709

Audio
ID                             : 2
Format                         : AAC
Format/Info                    : Advanced Audio Codec
Format profile                 : LC
Codec ID                       : 40
Duration                       : 5 min 12 s
Bit rate mode                  : Variable
Bit rate                       : 126 kb/s
Channel(s)                     : 2 channels
Channel positions              : Front: L R
Sampling rate                  : 44.1 kHz
Frame rate                     : 43.066 FPS (1024 spf)
Compression mode               : Lossy
Stream size                    : 4.67 MiB (17%)
Title                          : ISO Media file produced by Google Inc.
Encoded date                   : UTC 2017-05-23 12:33:30
Tagged date                    : UTC 2017-05-23 12:33:30


分享到:     分享到新浪微博 新浪微博    分享到QQ空间QQ空间    分享到腾讯微博腾讯微博



至爱音乐论坛声明:
◎本站音乐仅供试听,请下载后在24小时内删除,请支持你喜欢的歌手,购买正版CD。
◎本站音乐皆从网上搜集转载,版权归唱片公司和歌手所有,如侵犯您的权益,请通知我们,我们将及时删除。





顶部
陶喆主义
荣誉音乐师
Rank: 10Rank: 10Rank: 10


荣誉勋章   至爱音乐荣誉勋章   至爱音乐荣誉会员  
UID 13500
精华 0
积分 8562
帖子 1623
音乐魅力 5514 点
现金 1425 音乐币
阅读权限 100
注册 2006-3-19
状态 离线
发表于 2017-6-24 09:46  资料  个人空间  短消息  加为好友 
谢谢分享

顶部
温柔雪人
音乐爱好者
Rank: 2



UID 140846
精华 0
积分 762
帖子 25
音乐魅力 439 点
现金 298 音乐币
阅读权限 30
注册 2011-1-1
状态 离线
发表于 2017-6-27 15:41  资料  个人空间  短消息  加为好友 
感谢分享

顶部
konkasam
音乐热爱份子
Rank: 3Rank: 3



UID 121975
精华 0
积分 1589
帖子 27
音乐魅力 1264 点
现金 298 音乐币
阅读权限 30
注册 2008-2-10
状态 离线
发表于 2017-8-12 22:58  资料  个人空间  短消息  加为好友 
背景音乐好好听

顶部
apple555
音乐狂热份子
Rank: 4



UID 69494
精华 0
积分 3164
帖子 66
音乐魅力 2382 点
现金 716 音乐币
阅读权限 50
注册 2006-9-25
状态 离线
发表于 2017-10-9 18:17  资料  个人空间  短消息  加为好友 
谢谢楼主

顶部
Lil'Jin
音乐制作人
Rank: 6Rank: 6


UID 84898
精华 0
积分 4590
帖子 608
音乐魅力 3064 点
现金 918 音乐币
阅读权限 70
注册 2006-11-10
来自 上海
状态 离线
发表于 2017-11-1 00:23  资料  个人空间  短消息  加为好友 
thanks for this too...

顶部
居里大人
荣誉音乐师
Rank: 10Rank: 10Rank: 10


荣誉勋章   至爱音乐荣誉勋章   至爱音乐荣誉会员  
UID 7370
精华 0
积分 4262
帖子 365
音乐魅力 2971 点
现金 926 音乐币
阅读权限 100
注册 2006-2-14
状态 离线
发表于 2017-12-3 13:03  资料  个人空间  短消息  加为好友 
看看

边听边看才有意境。。。

顶部
 



当前时区 GMT+8, 现在时间是 2017-12-17 02:42
本论坛支付平台由支付宝提供
携手打造安全诚信的交易社区
Processed in 0.038987 second(s), 9 queries , Gzip enabled

清除 Cookies - 联系我们 - 至爱音乐论坛 - Archiver - WAP