标题: [日韩] [BD]G-DRAGON(权志龙) - 무제(無題) (Untitled, 2014)[MP4/60M]
  本主题由 ‘尛傑’ 于 2017-6-18 12:34 限时置顶    本主题被作者加入到个人文集中  
‘尛傑’ (强势回归...)
音乐掌门人
Rank: 14Rank: 14Rank: 14Rank: 14
独家资源


至爱音乐荣誉勋章   至爱音乐版主  
UID 59570
精华 11
积分 1395380
帖子 2044
音乐魅力 49692 点
现金 1343633 音乐币
阅读权限 180
注册 2006-8-28
状态 在线
发表于 2017-6-18 12:34  资料  个人空间  短消息  加为好友  QQ
[BD]G-DRAGON(权志龙) - 무제(無題) (Untitled, 2014)[MP4/60M]



QUOTE:
下载地址:


提取码:

**** 本内容跟帖回复才可浏览 *****



QUOTE:
General
Format                         : MPEG-4
Format profile                 : Base Media
Codec ID                       : isom (isom/iso2/avc1/mp41)
File size                      : 60.5 MiB
Duration                       : 3 min 48 s
Overall bit rate               : 2 225 kb/s
Writing application            : Lavf57.36.100

Video
ID                             : 1
Format                         : AVC
Format/Info                    : Advanced Video Codec
Format profile                 : High@L4
Format settings, CABAC         : Yes
Format settings, ReFrames      : 2 frames
Codec ID                       : avc1
Codec ID/Info                  : Advanced Video Coding
Duration                       : 3 min 48 s
Bit rate                       : 2 093 kb/s
Width                          : 1 920 pixels
Height                         : 1 080 pixels
Display aspect ratio           : 16:9
Frame rate mode                : Variable
Frame rate                     : 23.976 (24000/1001) FPS
Minimum frame rate             : 23.974 FPS
Maximum frame rate             : 23.981 FPS
Color space                    : YUV
Chroma subsampling             : 4:2:0
Bit depth                      : 8 bits
Scan type                      : Progressive
Bits/(Pixel*Frame)             : 0.042
Stream size                    : 56.9 MiB (94%)
Color range                    : Limited
Color primaries                : BT.709
Transfer characteristics       : BT.709
Matrix coefficients            : BT.709

Audio
ID                             : 2
Format                         : AAC
Format/Info                    : Advanced Audio Codec
Format profile                 : LC
Codec ID                       : 40
Duration                       : 3 min 48 s
Bit rate mode                  : Constant
Bit rate                       : 126 kb/s
Channel(s)                     : 2 channels
Channel positions              : Front: L R
Sampling rate                  : 44.1 kHz
Frame rate                     : 43.066 FPS (1024 spf)
Compression mode               : Lossy
Stream size                    : 3.42 MiB (6%)
Default                        : Yes
Alternate group                : 1


分享到:     分享到新浪微博 新浪微博    分享到QQ空间QQ空间    分享到腾讯微博腾讯微博



至爱音乐论坛声明:
◎本站音乐仅供试听,请下载后在24小时内删除,请支持你喜欢的歌手,购买正版CD。
◎本站音乐皆从网上搜集转载,版权归唱片公司和歌手所有,如侵犯您的权益,请通知我们,我们将及时删除。





顶部
 



当前时区 GMT+8, 现在时间是 2017-6-26 16:52
本论坛支付平台由支付宝提供
携手打造安全诚信的交易社区
Processed in 0.126839 second(s), 9 queries , Gzip enabled

清除 Cookies - 联系我们 - 至爱音乐论坛 - Archiver - WAP