标题: [欧美] [BD]Madonna Ft. Nicki Minaj - Bitch I'm Madonna[MP4/231M]
  本主题被作者加入到个人文集中  
‘尛傑’ (强势回归...)
音乐掌门人
Rank: 14Rank: 14Rank: 14Rank: 14
独家资源


至爱音乐荣誉勋章   至爱音乐版主  
UID 59570
精华 11
积分 1395316
帖子 2035
音乐魅力 49660 点
现金 1343610 音乐币
阅读权限 180
注册 2006-8-28
状态 在线
发表于 2015-6-18 02:04  资料  个人空间  短消息  加为好友  QQ
[BD]Madonna Ft. Nicki Minaj - Bitch I'm Madonna[MP4/231M]



QUOTE:
MV邀请Katy Perry、Beyonce、Miley Cyrus、Alexander Wang、Diplo等星客串!甚至麦当娜的两个儿子也出现了,阵容豪华!各种玩乐!



QUOTE:
下载地址:

http://pan.baidu.com/s/1jGGM6Lg
提取码:

**** 本内容跟帖回复才可浏览 *****



QUOTE:
General
Format                         : MPEG-4
Format profile                 : Base Media
Codec ID                       : isom
File size                      : 232 MiB
Duration                       : 4mn 3s
Overall bit rate mode          : Variable
Overall bit rate               : 8 015 Kbps
Writing application            : Lavf54.59.106

Video
ID                             : 1
Format                         : AVC
Format/Info                    : Advanced Video Codec
Format profile                 : Baseline@L4.1
Format settings, CABAC         : No
Format settings, ReFrames      : 1 frame
Codec ID                       : avc1
Codec ID/Info                  : Advanced Video Coding
Duration                       : 4mn 2s
Bit rate mode                  : Variable
Bit rate                       : 7 924 Kbps
Maximum bit rate               : 16.0 Mbps
Width                          : 1 920 pixels
Height                         : 1 080 pixels
Display aspect ratio           : 16:9
Frame rate mode                : Variable
Frame rate                     : 23.976 fps
Minimum frame rate             : 23.974 fps
Maximum frame rate             : 23.981 fps
Color space                    : YUV
Chroma subsampling             : 4:2:0
Bit depth                      : 8 bits
Scan type                      : Progressive
Bits/(Pixel*Frame)             : 0.159
Stream size                    : 229 MiB (99%)
Color primaries                : BT.709
Transfer characteristics       : BT.709
Matrix coefficients            : BT.709

Audio
ID                             : 2
Format                         : AAC
Format/Info                    : Advanced Audio Codec
Format profile                 : HE-AAC / LC
Codec ID                       : 40
Duration                       : 4mn 3s
Bit rate mode                  : Constant
Bit rate                       : 96.0 Kbps
Channel(s)                     : 2 channels
Channel positions              : Front: L R
Sampling rate                  : 48.0 KHz / 24.0 KHz
Compression mode               : Lossy
Stream size                    : 2.74 MiB (1%)


分享到:     分享到新浪微博 新浪微博    分享到QQ空间QQ空间    分享到腾讯微博腾讯微博



至爱音乐论坛声明:
◎本站音乐仅供试听,请下载后在24小时内删除,请支持你喜欢的歌手,购买正版CD。
◎本站音乐皆从网上搜集转载,版权归唱片公司和歌手所有,如侵犯您的权益,请通知我们,我们将及时删除。





顶部
陶喆主义
荣誉音乐师
Rank: 10Rank: 10Rank: 10


荣誉勋章   至爱音乐荣誉勋章   至爱音乐荣誉会员  
UID 13500
精华 0
积分 8514
帖子 1599
音乐魅力 5490 点
现金 1425 音乐币
阅读权限 100
注册 2006-3-19
状态 离线
发表于 2015-6-18 08:10  资料  个人空间  短消息  加为好友 
碧池!!!

顶部
xoxiaoyuer (AKA BigRoy)
音乐制作人
Rank: 6Rank: 6
雪雪的胖胖


UID 144276
精华 0
积分 5797
帖子 307
音乐魅力 5467 点
现金 23 音乐币
阅读权限 70
注册 2011-10-3
来自 青州
状态 离线
发表于 2015-6-18 19:40  资料  个人空间  短消息  加为好友  QQ
收这个mv,必须的 o(∩_∩)o 哈哈

顶部
xoxiaoyuer (AKA BigRoy)
音乐制作人
Rank: 6Rank: 6
雪雪的胖胖


UID 144276
精华 0
积分 5797
帖子 307
音乐魅力 5467 点
现金 23 音乐币
阅读权限 70
注册 2011-10-3
来自 青州
状态 离线
发表于 2015-6-18 20:38  资料  个人空间  短消息  加为好友  QQ
看完了 所谓的麦粒,碧昂丝,侃爷都是插播进来的,还不如里面吼了几嗓子的Rita ora呢,MV实在算不上啥经典啊。
另外实在不喜欢最近流行的电音曲风。。。

顶部
MICHAEL
音乐热爱份子
Rank: 3Rank: 3



UID 142500
精华 0
积分 1852
帖子 852
音乐魅力 980 点
现金 20 音乐币
阅读权限 30
注册 2011-4-1
状态 在线
发表于 2015-6-18 20:44  资料  个人空间  短消息  加为好友 
回复 #1 ‘尛傑’ 的帖子

多謝分享,好東西,收下。

顶部
feichang
音乐制作人
Rank: 6Rank: 6



UID 83912
精华 0
积分 6977
帖子 898
音乐魅力 4259 点
现金 1820 音乐币
阅读权限 70
注册 2006-11-8
状态 离线
发表于 2015-6-19 10:43  资料  个人空间  短消息  加为好友 
不错不错我很喜欢

顶部
bluelarry
音乐狂热份子
Rank: 4



UID 45410
精华 0
积分 3419
帖子 198
音乐魅力 2505 点
现金 716 音乐币
阅读权限 50
注册 2006-7-13
状态 离线
发表于 2015-6-19 15:39  资料  个人空间  短消息  加为好友 
谢谢分享!!!!

顶部
loversalex
音乐狂热份子
Rank: 4


UID 35534
精华 0
积分 3983
帖子 461
音乐魅力 2806 点
现金 716 音乐币
阅读权限 50
注册 2006-6-14
状态 离线
发表于 2015-6-20 22:02  资料  个人空间  短消息  加为好友 
thanks....

顶部
nanronan98
音乐狂热份子
Rank: 4



UID 135576
精华 0
积分 2799
帖子 1118
音乐魅力 1533 点
现金 148 音乐币
阅读权限 50
注册 2009-12-1
状态 离线
发表于 2015-6-22 17:36  资料  个人空间  短消息  加为好友 
哈哈哈    太爽了

顶部
Lil'Jin
音乐制作人
Rank: 6Rank: 6


UID 84898
精华 0
积分 4560
帖子 593
音乐魅力 3049 点
现金 918 音乐币
阅读权限 70
注册 2006-11-10
来自 上海
状态 离线
发表于 2015-6-23 01:22  资料  个人空间  短消息  加为好友 
yes you're Madonna bitch...

顶部
zdpxhl
音乐狂热份子
Rank: 4


UID 124613
精华 0
积分 2115
帖子 86
音乐魅力 1527 点
现金 502 音乐币
阅读权限 50
注册 2008-5-1
来自 江苏
状态 离线
发表于 2015-6-24 10:59  资料  个人空间  短消息  加为好友 
收这个mv,必须的 o(∩_∩)o 哈哈





[fly]学海无涯![/fly]www.yi-xinmusic.com
顶部
Meow_steve
音乐新人
Rank: 1



UID 148805
精华 0
积分 239
帖子 52
音乐魅力 174 点
现金 13 音乐币
阅读权限 10
注册 2015-2-1
状态 离线
发表于 2015-6-30 21:23  资料  个人空间  短消息  加为好友 
麻辣鸡出品,必属精品

顶部
yintianbao123
音乐热爱份子
Rank: 3Rank: 3



UID 134106
精华 0
积分 1785
帖子 285
音乐魅力 1198 点
现金 302 音乐币
阅读权限 30
注册 2009-8-1
状态 离线
发表于 2016-3-21 16:39  资料  个人空间  短消息  加为好友 
谢谢 收这个mv,必须的 o(∩_∩)o 哈哈

顶部
bonza
音乐狂热份子
Rank: 4



UID 47369
精华 0
积分 3061
帖子 25
音乐魅力 2320 点
现金 716 音乐币
阅读权限 50
注册 2006-7-20
状态 离线
发表于 2016-10-17 00:50  资料  个人空间  短消息  加为好友 
回复 #1 ‘尛傑’ 的帖子

thx

顶部
lihanq
音乐新人
Rank: 1



UID 147816
精华 0
积分 326
帖子 95
音乐魅力 221 点
现金 10 音乐币
阅读权限 10
注册 2013-5-1
状态 离线
发表于 2016-11-27 23:35  资料  个人空间  短消息  加为好友 
看看,,听听,下载

顶部
fengzhenlitj
音乐狂热份子
Rank: 4



UID 71550
精华 0
积分 3308
帖子 140
音乐魅力 2452 点
现金 716 音乐币
阅读权限 50
注册 2006-10-2
状态 离线
发表于 2017-2-17 19:19  资料  个人空间  短消息  加为好友 
谢谢分享

顶部
 



当前时区 GMT+8, 现在时间是 2017-4-28 22:04
本论坛支付平台由支付宝提供
携手打造安全诚信的交易社区
Processed in 0.075788 second(s), 8 queries , Gzip enabled

清除 Cookies - 联系我们 - 至爱音乐论坛 - Archiver - WAP