[BD]S.H.E - 十七音乐会[MP4/3.45G]



QUOTE:
女子天团S.H.E今天9月11日届满成军17周年,今晚在两厅院艺文广场举行“S.H.E十七周年”万人免费露天音乐会,Selina昨在面簿上载演唱会舞台现场图片,整个演唱会舞台设计大型成游乐场,充满童趣,舞台上方又正好挂着彩虹,让三姝喜出望外。

Selina任家萱写道“彩排前出現了彩虹!期待明天!”

Hebe田馥甄今早也在微博写:“‘身为一道彩虹,尽全力也要换你一段笑容,夠了。我爱你不必人懂’,晚上见!生日快乐!@嘉桦ella:超期待!”

长达两小时的免费演唱会,无论从舞台设计到表演曲目,也已经是正式卖票演唱会规格,S.H.E这次大手笔举行免费演唱会,就是为了回馈粉丝17年来的支持。



QUOTE:
下載地址:

https://pan.baidu.com/s/1Fk6arcTPHgXjEAu2Yp-Qzw

提取碼:

**** 本内容跟帖回复才可浏览 *****



QUOTE:
General
Format                         : MPEG-4
Format profile                 : Base Media
Codec ID                       : isom (isom/iso2/avc1/mp41)
File size                      : 3.46 GiB
Duration                       : 2 h 4 min
Overall bit rate               : 3 983 kb/s
Writing application            : Lavf57.71.100

Video
ID                             : 1
Format                         : AVC
Format/Info                    : Advanced Video Codec
Format profile                 : High@L4
Format settings, CABAC         : Yes
Format settings, ReFrames      : 4 frames
Codec ID                       : avc1
Codec ID/Info                  : Advanced Video Coding
Duration                       : 2 h 4 min
Bit rate                       : 3 844 kb/s
Width                          : 1 920 pixels
Height                         : 1 080 pixels
Display aspect ratio           : 16:9
Frame rate mode                : Constant
Frame rate                     : 25.000 FPS
Color space                    : YUV
Chroma subsampling             : 4:2:0
Bit depth                      : 8 bits
Scan type                      : Progressive
Bits/(Pixel*Frame)             : 0.074
Stream size                    : 3.34 GiB (97%)

Audio
ID                             : 2
Format                         : AAC
Format/Info                    : Advanced Audio Codec
Format profile                 : LC
Codec ID                       : 40
Duration                       : 2 h 4 min
Bit rate mode                  : Constant
Bit rate                       : 129 kb/s
Channel(s)                     : 2 channels
Channel positions              : Front: L R
Sampling rate                  : 44.1 kHz
Frame rate                     : 43.066 FPS (1024 spf)
Compression mode               : Lossy
Stream size                    : 115 MiB (3%)
Language                       : unk
Default                        : Yes
Alternate group                : 1

评论(2)

谢谢分享!!!!



thank you very much!


发表评论
本文章已关闭或您没有权限发表评论。