[BD]Bruno Mars - Versace On The Floor[MP4/55M]



QUOTE:
下载地址:

http://pan.baidu.com/s/1o7B7xiE

提取码:
**** 本内容跟帖回复才可浏览 *****



QUOTE:
General
Format                         : MPEG-4
Format profile                 : Base Media / Version 2
Codec ID                       : mp42 (isom/mp42)
File size                      : 56.0 MiB
Duration                       : 5 min 36 s
Overall bit rate mode          : Variable
Overall bit rate               : 1 393 kb/s
Encoded date                   : UTC 2017-08-11 18:47:58
Tagged date                    : UTC 2017-08-11 18:47:58
gsst                           : 0
gstd                           : 336898

Video
ID                             : 1
Format                         : AVC
Format/Info                    : Advanced Video Codec
Format profile                 : Main@L3.1
Format settings, CABAC         : Yes
Format settings, ReFrames      : 3 frames
Codec ID                       : avc1
Codec ID/Info                  : Advanced Video Coding
Duration                       : 5 min 36 s
Bit rate                       : 1 264 kb/s
Width                          : 1 280 pixels
Height                         : 720 pixels
Display aspect ratio           : 16:9
Frame rate mode                : Variable
Frame rate                     : 23.976 (24000/1001) FPS
Minimum frame rate             : 23.974 FPS
Maximum frame rate             : 23.981 FPS
Color space                    : YUV
Chroma subsampling             : 4:2:0
Bit depth                      : 8 bits
Scan type                      : Progressive
Bits/(Pixel*Frame)             : 0.057
Stream size                    : 50.7 MiB (91%)
Title                          : ISO Media file produced by Google Inc.
Encoded date                   : UTC 2017-08-11 18:47:58
Tagged date                    : UTC 2017-08-11 18:47:58
Color range                    : Limited
Color primaries                : BT.709
Transfer characteristics       : BT.709
Matrix coefficients            : BT.709

Audio
ID                             : 2
Format                         : AAC
Format/Info                    : Advanced Audio Codec
Format profile                 : LC
Codec ID                       : 40
Duration                       : 5 min 36 s
Bit rate mode                  : Variable
Bit rate                       : 126 kb/s
Channel(s)                     : 2 channels
Channel positions              : Front: L R
Sampling rate                  : 44.1 kHz
Frame rate                     : 43.066 FPS (1024 spf)
Compression mode               : Lossy
Stream size                    : 5.04 MiB (9%)
Title                          : ISO Media file produced by Google Inc.
Encoded date                   : UTC 2017-08-11 18:47:58
Tagged date                    : UTC 2017-08-11 18:47:58

评论(9)

谢谢分享



感谢分享~~



谢谢分享 大爱火星哥



谢谢分享 火星哥的新MV瞅一瞅



感谢分享



thanks for this...



歌倒是听了好多遍了,MV一直都没有看过



谢谢分享



感谢分享~~



发表评论
本文章已关闭或您没有权限发表评论。